<?xml version="1.0" standalone="no"?>
<!DOCTYPE svg PUBLIC "-//W3C//DTD SVG 1.1//EN" "http://www.w3.org/Graphics/SVG/1.1/DTD/svg11.dtd" >
<svg xmlns="http://www.w3.org/2000/svg">
<metadata>Generated by IcoMoon</metadata>
<defs>
<font id="villatheme" horiz-adv-x="1024">
<font-face units-per-em="1024" ascent="960" descent="-64" />
<missing-glyph horiz-adv-x="1024" />
<glyph unicode="&#x20;" horiz-adv-x="512" d="" />
<glyph unicode="&#xe900;" glyph-name="vc_btn" d="M102.875 718.875c-28.491 0-51.437-22.946-51.437-51.437v-394.312c0-28.491 22.946-51.438 51.437-51.438h814.25c28.491 0 51.438 22.946 51.438 51.438v394.312c0 28.491-22.946 51.437-51.438 51.437h-814.25zM127.313 676h771.062c15.137 0 27.312-12.176 27.312-27.312v-356.812c0-15.137-12.176-27.313-27.312-27.313h-771.062c-15.137 0-27.312 12.176-27.312 27.313v356.812c0 15.137 12.176 27.312 27.312 27.312zM129.899 522.093h26.586l27.204-78.265 27.135 78.265h26.586l-37.99-106.034h-31.532zM247.371 495.602h24.594v-79.543h-24.594zM247.371 526.566h24.594v-20.737h-24.594zM372.537 456.044v-7.243h-57.5q0.893-8.952 6.251-13.423 5.358-4.476 14.976-4.476 7.763 0 15.869 2.349 8.175 2.41 16.762 7.243v-19.602q-8.724-3.406-17.449-5.116-8.724-1.771-17.449-1.771-20.884 0-32.494 10.932-11.541 11.006-11.541 30.823 0 19.459 11.335 30.609 11.404 11.154 31.326 11.154 18.136 0 28.99-11.289 10.923-11.289 10.923-30.184zM347.256 464.492q0 7.243-4.122 11.646-4.053 4.476-10.648 4.476-7.144 0-11.61-4.193-4.465-4.12-5.564-11.928zM384.216 495.602h23.907l12.915-54.828 12.984 54.828h20.54l12.915-54.26 12.984 54.26h23.907l-20.266-79.543h-26.861l-12.984 54.686-12.915-54.686h-26.861zM652.409 421.882q-7.282-3.911-15.182-5.89-7.9-1.992-16.487-1.992-25.624 0-40.6 14.773-14.976 14.843-14.976 40.198 0 25.425 14.976 40.198 14.976 14.843 40.6 14.843 8.587 0 16.487-1.992t15.182-5.89v-21.946q-7.351 5.189-14.495 7.6t-15.045 2.41q-14.152 0-22.258-9.371t-8.106-25.851q0-16.406 8.106-25.781 8.106-9.371 22.258-9.371 7.9 0 15.045 2.41t14.495 7.6zM707.779 451.853q-7.694 0-11.61-2.693-3.847-2.705-3.847-7.956 0-4.833 3.091-7.6 3.16-2.693 8.724-2.693 6.938 0 11.678 5.116 4.74 5.189 4.74 12.926v2.914zM745.356 461.445v-45.382h-24.8v11.793q-4.946-7.243-11.129-10.588-6.183-3.271-15.045-3.271-11.953 0-19.441 7.169-7.419 7.243-7.419 18.75 0 13.991 9.274 20.524 9.343 6.53 29.265 6.53h14.495v1.992q0 6.038-4.603 8.805-4.603 2.841-14.358 2.841-7.9 0-14.701-1.636t-12.64-4.907v19.389q7.9 1.992 15.869 2.976 7.969 1.107 15.938 1.107 20.815 0 30.021-8.522 9.274-8.448 9.274-27.556zM825.526 473.94q-3.229 1.562-6.458 2.275-3.16 0.738-6.389 0.738-9.48 0-14.632-6.321-5.084-6.247-5.084-17.969v-36.646h-24.594v79.543h24.594v-13.067q4.74 7.809 10.854 11.363 6.183 3.628 14.77 3.628 1.237 0 2.679-0.123 1.443-0.071 4.19-0.369zM864.752 518.187v-22.585h25.349v-18.182h-25.349v-33.734q0-5.546 2.13-7.526 2.13-1.918 8.45-1.918h12.64v-18.182h-21.090q-14.564 0-20.678 6.247-6.045 6.321-6.045 21.378v33.735h-12.228v18.182h12.228v22.585z" />
<glyph unicode="&#xe901;" glyph-name="voucher" d="M262.138 774.14c-3.718 3.72-8.878 5.86-14.138 5.86s-10.42-2.14-14.14-5.86-5.86-8.88-5.86-14.14 2.138-10.42 5.86-14.14c3.722-3.72 8.88-5.86 14.14-5.86s10.42 2.14 14.138 5.86c3.72 3.72 5.862 8.88 5.862 14.14s-2.14 10.42-5.862 14.14zM1004 780h-676.666c-11.044 0-20-8.954-20-20s8.956-20 20-20h656.666v-584h-944v584h130c11.044 0 20 8.954 20 20s-8.956 20-20 20h-150c-11.044 0-20-8.954-20-20v-624c0-11.044 8.956-20 20-20h984c11.044 0 20 8.956 20 20v624c0 11.046-8.956 20-20 20zM472 583.724h-55.528c4.808 9.646 7.528 20.51 7.528 32 0 39.702-32.298 72-72 72-20.428 0-38.884-8.566-52-22.278-13.116 13.712-31.572 22.278-52 22.278-39.702 0-72-32.298-72-72 0-11.49 2.72-22.352 7.528-32h-55.528c-11.044 0-20-8.954-20-20v-120c0-11.044 8.956-20 20-20v-116c0-33.084 26.916-60 60-60h224c33.084 0 60 26.916 60 60v116c11.044 0 20 8.956 20 20v120c0 11.046-8.956 20-20 20zM232 287.724h-44c-11.028 0-20 8.974-20 20v116h64v-136zM232 463.724h-84v80h84v-80zM216 615.724c0 17.644 14.356 32 32 32s32-14.356 32-32v-32h-32c-17.644 0-32 14.356-32 32zM328 443.724v-156h-56v256h56v-100zM320 583.724v32c0 17.646 14.356 32 32 32s32-14.356 32-32-14.356-32-32-32h-32zM432 307.724c0-11.028-8.972-20-20-20h-44v136h64v-116zM452 463.724h-84v80h84v-80zM800.642 656.274c-9.618 5.432-21.816 2.038-27.248-7.584l-107.538-190.49c-5.43-9.62-2.036-21.818 7.584-27.248 3.108-1.754 6.482-2.588 9.814-2.588 6.978 0 13.758 3.66 17.434 10.172l107.538 190.49c5.43 9.62 2.036 21.818-7.584 27.248zM818.458 536.934c-33.084 0-60-26.916-60-60s26.916-60 60-60 60 26.916 60 60-26.916 60-60 60zM818.458 456.934c-11.028 0-20 8.972-20 20s8.972 20 20 20c11.028 0 20-8.972 20-20s-8.972-20-20-20zM678.692 691.082c-33.084 0-60-26.916-60-60s26.916-60 60-60 60 26.916 60 60-26.916 60-60 60zM678.692 611.082c-11.028 0-20 8.972-20 20s8.972 20 20 20c11.028 0 20-8.972 20-20s-8.974-20-20-20zM896 364h-294.852c-11.044 0-20-8.956-20-20s8.956-20 20-20h294.852c11.044 0 20 8.956 20 20s-8.956 20-20 20zM748.574 279.402h-147.426c-11.044 0-20-8.956-20-20s8.956-20 20-20h147.426c11.044 0 20 8.956 20 20s-8.956 20-20 20zM836.418 273.542c-3.72 3.718-8.88 5.86-14.14 5.86s-10.4-2.142-14.14-5.86c-3.718-3.72-5.86-8.862-5.86-14.14 0-5.26 2.14-10.42 5.86-14.14 3.74-3.718 8.88-5.86 14.14-5.86s10.42 2.14 14.14 5.86c3.74 3.72 5.86 8.88 5.86 14.14s-2.12 10.42-5.86 14.14z" />
<glyph unicode="&#xe902;" glyph-name="icon" d="M1010.644 708.402c-0.562-9.225-1.805-15.602-3.489-18.73-1.805-3.369-7.059-5.816-15.722-7.34-18.811-4.171-31.324 2.968-37.501 21.378-21.859 67.783-47.889 112.784-77.97 135.325-41.753 31.004-114.789 46.566-219.351 46.566-42.274 0-65.497-4.612-69.547-13.757-1.444-3.008-2.286-7.38-2.286-12.995v-762.014c0-32.568 7.54-55.47 22.902-68.545 15.321-12.835 42.876-29.319 88.278-40.068 19.372-4.131 38.905-8.022 41.472-9.586 18.45 0 20.214-42.394-15.081-42.394-1.003-0.642-416.122 0.321-416.122 0.321s-28.998 17.607-2.968 41.031c10.869 4.853 30.763 13.757 30.763 13.757s73.398 24.626 88.679 40.469c17.407 17.848 25.99 46.686 25.99 86.393v740.676c0 14.8-9.185 23.463-27.554 25.95-1.965 0.602-17.046 0.802-45.001 0.802-96.861 0-168.093-16.765-214.097-50.496-34.653-24.947-65.336-70.751-92.369-137.651-8.703-20.856-20.736-27.634-35.977-20.575-17.327 4.051-23.624 13.597-19.132 28.276 17.848 55.109 26.792 132.758 26.792 233.189 0 11.712 15.522 23.503 46.646 21.378l856.95-2.326c28.437 4.171 43.958-0.481 46.525-13.757 14.278-67.743 20.616-146.194 19.172-235.274z" />
<glyph unicode="&#xe903;" glyph-name="move" d="M989.045 449.162l-213.932 213.932v-164.563h-197.476v-98.738h197.476v-164.563zM520.426-2.14l213.932 213.932h-164.563v197.476h-98.738v-197.476h-164.563zM59.463 454.983l213.932-213.932v164.563h197.476v98.738h-197.476v164.563zM526.247 921.694l-213.932-213.932h164.563v-197.476h98.738v197.476h164.563z" />
<glyph unicode="&#xe904;" glyph-name="format_color_text" d="M410 448h204l-102 270zM470 832h84l234-598h-96l-46 128h-268l-48-128h-96zM0 106h1024v-170h-1024v170z" />
<glyph unicode="&#xe905;" glyph-name="format_color_fill" d="M0 106h1024v-170h-1024v170zM810 470c0 0 86-94 86-150 0-46-40-86-86-86s-84 40-84 86c0 56 84 150 84 150zM222 534h410l-206 204zM706 578c26-26 26-66 0-90l-234-234c-12-12-30-20-46-20s-32 8-44 20l-236 234c-26 24-26 64 0 90l220 220-102 102 62 60z" />
<glyph unicode="&#xe906;" glyph-name="border_color" d="M0 106h1024v-170h-1024v170zM884 788l-84-84-160 160 84 84c16 16 44 16 60 0l100-100c16-16 16-44 0-60zM758 662l-428-428h-160v160l428 428z" />
<glyph unicode="&#xe907;" glyph-name="palette" d="M746 448c36 0 64 28 64 64s-28 64-64 64-64-28-64-64 28-64 64-64zM618 618c36 0 64 28 64 64s-28 64-64 64-64-28-64-64 28-64 64-64zM406 618c36 0 64 28 64 64s-28 64-64 64-64-28-64-64 28-64 64-64zM278 448c36 0 64 28 64 64s-28 64-64 64-64-28-64-64 28-64 64-64zM512 832c212 0 384-154 384-342 0-118-96-212-214-212h-74c-36 0-64-28-64-64 0-16 6-30 16-42s16-28 16-44c0-36-28-64-64-64-212 0-384 172-384 384s172 384 384 384z" />
<glyph unicode="&#xe908;" glyph-name="question" d="M512 864c-111.118 0-215.584-43.272-294.156-121.844s-121.844-183.038-121.844-294.156c0-111.118 43.272-215.584 121.844-294.156s183.038-121.844 294.156-121.844c111.118 0 215.584 43.272 294.156 121.844s121.844 183.038 121.844 294.156c0 111.118-43.272 215.584-121.844 294.156s-183.038 121.844-294.156 121.844zM512 960v0c282.77 0 512-229.23 512-512s-229.23-512-512-512c-282.77 0-512 229.23-512 512s229.23 512 512 512zM504.471 318.188h-25.528q-1.245 52.968 6.226 79.213 8.094 26.245 40.471 72.056 32.999 46.287 42.961 73.964 10.585 28.154 10.585 69.192 0 63.466-32.377 93.529t-76.583 30.063q-33.622 0-56.659-13.838-17.434-10.498-17.434-21.951 0-7.635 11.83-23.859 26.773-36.744 26.773-62.512 0-23.382-21.169-39.129-20.547-15.747-51.678-15.747-34.867 0-58.527 18.61-23.66 19.088-23.66 50.105 0 56.308 63.508 98.778t177.448 42.47q120.789 0 183.674-44.379 63.508-43.901 63.508-106.413 0-45.333-32.377-83.985-32.377-38.175-125.148-84.94-62.263-31.494-82.187-56.308-19.301-24.337-23.66-74.919zM497.622 248.518q41.716 0 70.979-22.428t29.263-54.4-29.263-54.877q-29.263-22.428-70.979-22.428t-70.979 22.428q-29.263 22.905-29.263 54.877t29.263 54.4 70.979 22.428z" />
<glyph unicode="&#xe909;" glyph-name="shopping-cart" d="M691.2 102.4c0-56.525 45.773-102.4 102.4-102.4 56.525 0 102.4 45.875 102.4 102.4 0 56.627-45.875 102.4-102.4 102.4-56.627 0-102.4-45.773-102.4-102.4zM179.2 102.4c0-56.525 45.824-102.4 102.4-102.4 56.474 0 102.4 45.875 102.4 102.4 0 56.627-45.926 102.4-102.4 102.4-56.576 0-102.4-45.773-102.4-102.4zM360.806 349.594l566.682 161.894c10.803 3.123 19.712 14.797 19.712 26.112v281.6h-716.8v81.92c0 11.264-9.267 20.48-20.429 20.48h-163.942c-11.213 0-20.429-9.216-20.429-20.48v-81.92h102.4l97.792-458.598 4.608-48.282v-84.429c0-11.213 9.216-20.48 20.48-20.48h675.84c11.264 0 20.48 9.318 20.48 20.48v79.309h-575.898c-58.88 0-60.109 28.211-10.496 42.394z" />
<glyph unicode="&#xe90a;" glyph-name="messenger" d="M512 960c-282.752 0-512-212.224-512-474.069 0-149.248 74.411-282.197 190.677-369.237v-180.693l174.421 95.659c46.592-12.8 95.829-19.797 146.901-19.797 282.752 0 512 212.267 512 474.027s-229.248 474.112-512 474.112zM562.816 321.579l-130.347 139.093-254.421-139.093 279.851 297.088 133.589-139.051 251.264 139.051-279.936-297.088z" />
<glyph unicode="&#xe90b;" glyph-name="header" d="M961.143 0c-50.286 0-101.143 4-152 4-50.286 0-100.571-4-150.857-4-19.429 0-28.571 21.143-28.571 37.714 0 50.857 57.143 29.143 86.857 48.571 18.857 12 18.857 60 18.857 80l-0.571 223.429c0 6.286 0 12-0.571 17.714-9.143 2.857-19.429 2.286-28.571 2.286h-385.714c-9.714 0-20 0.571-29.143-2.286-0.571-5.714-0.571-11.429-0.571-17.714l-0.571-212c0-21.714 0-81.143 21.143-93.714 29.714-18.286 97.143 7.429 97.143-44 0-17.143-8-40-28-40-53.143 0-106.286 4-158.857 4-48.571 0-97.143-4-145.714-4-18.857 0-27.429 21.714-27.429 37.714 0 49.714 52.571 29.143 80.571 48.571 18.286 12.571 18.857 61.714 18.857 81.714l-0.571 32.571v464.571c0 27.429 4 115.429-21.714 130.857-28.571 17.714-89.714-9.714-89.714 41.714 0 16.571 7.429 40 27.429 40 52.571 0 105.714-4 158.286-4 48 0 96.571 4 144.571 4 20.571 0 28.571-22.857 28.571-40 0-49.143-56.571-25.143-84.571-42.857-20-12-20-70.857-20-91.429l0.571-182.857c0-6.286 0-12 0.571-18.286 7.429-1.714 14.857-1.714 22.286-1.714h399.429c6.857 0 14.286 0 21.714 1.714 0.571 6.286 0.571 12 0.571 18.286l0.571 182.857c0 21.143 0 79.429-20 91.429-28.571 17.143-85.714-5.714-85.714 42.857 0 17.143 8 40 28.571 40 50.286 0 100.571-4 150.857-4 49.143 0 98.286 4 147.429 4 20.571 0 28.571-22.857 28.571-40 0-49.714-58.857-24.571-87.429-42.286-19.429-12.571-20-71.429-20-92l0.571-538.857c0-18.857 1.143-68.571 19.429-80 29.143-18.286 90.857 5.143 90.857-44.571 0-16.571-7.429-40-27.429-40z" />
<glyph unicode="&#xe962;" glyph-name="floppy-disk" d="M896 981.333h-896v-1024h1024v896l-128 128zM512 853.333h128v-256h-128v256zM896 85.333h-768v768h64v-320h576v320h74.978l53.022-53.018v-714.982z" />
<glyph unicode="&#xe97b;" glyph-name="spinner2" d="M1024 469.333c-1.278 66.862-15.784 133.516-42.576 194.462-26.704 61-65.462 116.258-113.042 161.92-47.552 45.696-103.944 81.82-164.984 105.652-61.004 23.924-126.596 35.352-191.398 33.966-64.81-1.282-129.332-15.374-188.334-41.356-59.048-25.896-112.542-63.47-156.734-109.576-44.224-46.082-79.16-100.708-102.186-159.798-23.114-59.062-34.128-122.52-32.746-185.27 1.286-62.76 14.964-125.148 40.134-182.206 25.088-57.1 61.476-108.828 106.11-151.548 44.61-42.754 97.472-76.504 154.614-98.72 57.118-22.304 118.446-32.902 179.142-31.526 60.708 1.29 120.962 14.554 176.076 38.914 55.15 24.282 105.116 59.48 146.366 102.644 41.282 43.14 73.844 94.236 95.254 149.43 13.034 33.458 21.88 68.4 26.542 103.798 1.246-0.072 2.498-0.12 3.762-0.12 35.346 0 64 28.652 64 64 0 1.796-0.094 3.572-0.238 5.332h0.238zM922.306 299.385c-23.472-53.202-57.484-101.4-99.178-141.18-41.67-39.81-91-71.186-144.244-91.79-53.228-20.678-110.29-30.452-166.884-29.082-56.604 1.298-112.596 13.736-163.82 36.474-51.25 22.666-97.684 55.49-135.994 95.712-38.338 40.198-68.528 87.764-88.322 139.058-19.87 51.284-29.228 106.214-27.864 160.756 1.302 54.552 13.328 108.412 35.254 157.69 21.858 49.3 53.498 93.97 92.246 130.81 38.73 36.868 84.53 65.87 133.874 84.856 49.338 19.060 102.136 28.006 154.626 26.644 52.5-1.306 104.228-12.918 151.562-34.034 47.352-21.050 90.256-51.502 125.624-88.782 35.396-37.258 63.21-81.294 81.39-128.688 18.248-47.392 26.782-98.058 25.424-148.496h0.238c-0.144-1.76-0.238-3.536-0.238-5.332 0-33.012 24.992-60.174 57.086-63.624-6.224-34.822-16.53-68.818-30.78-100.992z" />
<glyph unicode="&#xe982;" glyph-name="spinner9" d="M512 981.333c-278.748 0-505.458-222.762-511.848-499.974 5.92 241.864 189.832 435.974 415.848 435.974 229.75 0 416-200.576 416-448 0-53.020 42.98-96 96-96s96 42.98 96 96c0 282.77-229.23 512-512 512zM512-42.667c278.748 0 505.458 222.762 511.848 499.974-5.92-241.864-189.832-435.974-415.848-435.974-229.75 0-416 200.576-416 448 0 53.020-42.98 96-96 96s-96-42.98-96-96c0-282.77 229.23-512 512-512z" />
<glyph unicode="&#xe9ad;" glyph-name="bin2" d="M192-42.667h640l64 704h-768zM640 853.333v128h-256v-128h-320v-192l64 64h768l64-64v192h-320zM576 853.333h-128v64h128v-64z" />
<glyph unicode="&#xea0f;" glyph-name="cross" d="M1014.662 137.34c-0.004 0.004-0.008 0.008-0.012 0.010l-310.644 310.65 310.644 310.65c0.004 0.004 0.008 0.006 0.012 0.010 3.344 3.346 5.762 7.254 7.312 11.416 4.246 11.376 1.824 24.682-7.324 33.83l-146.746 146.746c-9.148 9.146-22.45 11.566-33.828 7.32-4.16-1.55-8.070-3.968-11.418-7.31 0-0.004-0.004-0.006-0.008-0.010l-310.648-310.652-310.648 310.65c-0.004 0.004-0.006 0.006-0.010 0.010-3.346 3.342-7.254 5.76-11.414 7.31-11.38 4.248-24.682 1.826-33.83-7.32l-146.748-146.748c-9.148-9.148-11.568-22.452-7.322-33.828 1.552-4.16 3.97-8.072 7.312-11.416 0.004-0.002 0.006-0.006 0.010-0.010l310.65-310.648-310.65-310.652c-0.002-0.004-0.006-0.006-0.008-0.010-3.342-3.346-5.76-7.254-7.314-11.414-4.248-11.376-1.826-24.682 7.322-33.83l146.748-146.746c9.15-9.148 22.452-11.568 33.83-7.322 4.16 1.552 8.070 3.97 11.416 7.312 0.002 0.004 0.006 0.006 0.010 0.010l310.648 310.65 310.648-310.65c0.004-0.002 0.008-0.006 0.012-0.008 3.348-3.344 7.254-5.762 11.414-7.314 11.378-4.246 24.684-1.826 33.828 7.322l146.746 146.748c9.148 9.148 11.57 22.454 7.324 33.83-1.552 4.16-3.97 8.068-7.314 11.414z" />
<glyph unicode="&#xea62;" glyph-name="bold" d="M707.88 496.681c37.498 44.542 60.12 102.008 60.12 164.652 0 141.16-114.842 256-256 256h-320v-896h384c141.158 0 256 114.842 256 256 0 92.956-49.798 174.496-124.12 219.348zM384 789.333h101.5c55.968 0 101.5-57.42 101.5-128s-45.532-128-101.5-128h-101.5v256zM543 149.333h-159v256h159c58.45 0 106-57.42 106-128s-47.55-128-106-128z" />
<glyph unicode="&#xea63;" glyph-name="underline" d="M704 917.333h128v-416c0-159.058-143.268-288-320-288-176.73 0-320 128.942-320 288v416h128v-416c0-40.166 18.238-78.704 51.354-108.506 36.896-33.204 86.846-51.494 140.646-51.494s103.75 18.29 140.646 51.494c33.116 29.802 51.354 68.34 51.354 108.506v416zM192 149.333h640v-128h-640z" />
<glyph unicode="&#xea64;" glyph-name="italic" d="M896 917.333v-64h-128l-320-768h128v-64h-448v64h128l320 768h-128v64z" />
<glyph unicode="&#xea77;" glyph-name="paragraph-left" d="M0 917.333h1024v-128h-1024zM0 725.333h640v-128h-640zM0 341.333h640v-128h-640zM0 533.333h1024v-128h-1024zM0 149.333h1024v-128h-1024z" />
<glyph unicode="&#xea78;" glyph-name="paragraph-center" d="M0 917.333h1024v-128h-1024zM192 725.333h640v-128h-640zM192 341.333h640v-128h-640zM0 533.333h1024v-128h-1024zM0 149.333h1024v-128h-1024z" />
<glyph unicode="&#xea79;" glyph-name="paragraph-right" d="M0 917.333h1024v-128h-1024zM384 725.333h640v-128h-640zM384 341.333h640v-128h-640zM0 533.333h1024v-128h-1024zM0 149.333h1024v-128h-1024z" />
<glyph unicode="&#xea85;" glyph-name="mail3" d="M853.342 981.333h-682.656c-93.874 0-170.686-76.81-170.686-170.69v-682.622c0-93.938 76.812-170.688 170.686-170.688h682.656c93.876 0 170.658 76.75 170.658 170.69v682.62c0 93.88-76.782 170.69-170.658 170.69zM182.628 94.707l-77.256 77.254 256 256 29.256-29.254-208-304zM153.372 782.705l29.256 29.256 329.372-265.374 329.374 265.374 29.254-29.256-358.628-422.626-358.628 422.626zM841.374 94.707l-208 304 29.254 29.254 256-256-77.254-77.254z" />
<glyph unicode="&#xea90;" glyph-name="facebook" d="M608 789.333h160v192h-160c-123.514 0-224-100.486-224-224v-96h-128v-192h128v-512h192v512h160l32 192h-192v96c0 17.346 14.654 32 32 32z" />
<glyph unicode="&#xea91;" glyph-name="facebook2" d="M928 981.333h-832c-52.8 0-96-43.2-96-96v-832c0-52.8 43.2-96 96-96h416v448h-128v128h128v64c0 105.8 86.2 192 192 192h128v-128h-128c-35.2 0-64-28.8-64-64v-64h192l-32-128h-160v-448h288c52.8 0 96 43.2 96 96v832c0 52.8-43.2 96-96 96z" />
<glyph unicode="&#xeae2;" glyph-name="file-excel" d="M743.028 597.333h-135.292l-95.732-141.032-95.742 141.032h-135.29l162.162-242.464-182.972-269.536h251.838v91.576h-50.156l50.156 74.994 111.396-166.57h140.444l-182.976 269.536 162.164 242.464zM917.806 752.257c-22.21 30.292-53.174 65.7-87.178 99.704s-69.412 64.964-99.704 87.178c-51.574 37.82-76.592 42.194-90.924 42.194h-496c-44.112 0-80-35.888-80-80v-864c0-44.112 35.886-80 80-80h736c44.112 0 80 35.888 80 80v624c0 14.332-4.372 39.35-42.194 90.924v0zM785.374 806.707c30.7-30.7 54.8-58.398 72.58-81.374h-153.954v153.946c22.982-17.78 50.678-41.878 81.374-72.572v0zM896 37.333c0-8.672-7.328-16-16-16h-736c-8.672 0-16 7.328-16 16v864c0 8.672 7.328 16 16 16 0 0 495.956 0.002 496 0v-224c0-17.672 14.324-32 32-32h224v-624z" />
</font>
</defs>
</svg>
